Mars Needs Moms TS XViD - IMAGiNE

Thảo luận trong 'Download' bắt đầu bởi SSJ4, 18/1/15.

  1. SSJ4

    SSJ4 New Member

    Mars Needs Moms TS XViD – IMAGiNE

    [​IMG]

    Mã:
    http://www.rottentomatoes.com/m/mars_needs_moms/
    http://www.imdb.com/title/tt1696198/
    [​IMG]

    Mã:
    Mars.Needs.Moms.TS.XViD-IMAGiNE
    
    
    
    File Size                        : 1.38 GB
    Language                         : English
    Subtitles                        : N/A
    Genre                            : Animation | Action | Adventure
    Directed By                      : Simon Wells
    Starring                         : Seth Green, Joan Cusack and Dan Fogler
      
    
    Video
    ID                               : 0
    Format                           : MPEG-4 Visual
    Format profile                   : Advanced Simple@L5
    Format settings, BVOP            : 2
    Format settings, QPel            : No
    Format settings, GMC             : No warppoints
    Format settings, Matrix          : Default (MPEG)
    Muxing mode                      : Packed bitstream
    Codec ID                         : XVID
    Codec ID/Hint                    : XviD
    Duration                         : 1h 21mn
    Bit rate                         : 2 294 Kbps
    Width                            : 720 pixels
    Height                           : 304 pixels
    Display aspect ratio             : 2.35:1
    Frame rate                       : 25.000 fps
    Color space                      : YUV
    Chroma subsampling               : 4:2:0
    Bit depth                        : 8 bits
    Scan type                        : Progressive
    Compression mode                 : Lossy
    Bits/(Pixel*Frame)               : 0.419
    Stream size                      : 1.30 GiB (94%)
    Writing library                  : XviD 61
     
    Audio
    ID                               : 1
    Format                           : MPEG Audio
    Format version                   : Version 1
    Format profile                   : Layer 3
    Codec ID                         : 55
    Codec ID/Hint                    : MP3
    Duration                         : 1h 21mn
    Bit rate mode                    : Constant
    Bit rate                         : 128 Kbps
    Channel(s)                       : 2 channels
    Sampling rate                    : 44.1 KHz
    Compression mode                 : Lossy
    Stream size                      : 74.5 MiB (5%)
    Alignment                        : Split accross interleaves
    Interleave, duration             : 40 ms (1.00 video frame)
    Interleave, preload duration     : 500 ms
    [​IMG]



    [​IMG]


    [​IMG]
    Mã:
    http://www.fileserve.com/file/dwFq2R9
    http://www.fileserve.com/file/sKfZda4
    [​IMG]
    Mã:
    http://www.filesonic.com/file/280313354/Mars Needs Moms TS XViD-IMAGiNE.part1.rar
    http://www.filesonic.com/file/280332341/Mars Needs Moms TS XViD-IMAGiNE.part2.rar
    [​IMG]
    Mã:
    http://www.duckload.com/download/3811016/Mars_Needs_Moms_TS_XViD_-_IMAGiNE.avi
     
    Đang tải...

Chia sẻ trang này