Anh/Mỹ [MF] Season of the Witch (2011) Bluray 720p!!!

Thảo luận trong 'HD Zone' bắt đầu bởi relex_thu7, 17/1/15.

  1. relex_thu7

    relex_thu7 New Member

    [​IMG] Season of the Witch (2011) 720p BluRay DTS x264-ELEKTRI4KA
    [​IMG]







    Season of the Witch (2011)
    [​IMG]
    [​IMG]
    Country : USA Genre :Action Imdb Score :5.5/10 (5,588 points) Language : English Release : -- () Duration : 95 min [​IMG] [​IMG] [​IMG] Plot : A 14th century Crusader returns to a homeland devastated by the Black Plague. A beleaguered church, deeming sorcery the culprit of the plague, commands the two knights to transport an accused witch to a remote abbey, where monks will perform a ritual in hopes of ending the pestilence. A priest, a grieving knight, a disgraced itinerant and a headstrong youth who can only dream of becoming a knight join a mission troubled by mythically hostile wilderness and fierce contention over the fate of the girl. When the embattled party arrives at the abbey, a horrific discovery jeopardises the knight's pledge to ensure the girl fair treatment, and pits them against an inexplicably powerful and destructive force.
    [​IMG] Director : Dominic Sena Cast : Nicolas Cage, Ron Perlman, Stephen Campbell Moore, Stephen Graham, Ulrich Thomsen, Claire Foy, Robert Sheehan, Christopher Lee, Rebekah Kennedy, Andrew Hefler, Fernanda Dorogi [​IMG]

    [​IMG]

    Trích:
    Thế kỷ 14, thời gian mà nhân loại bị ám ảnh bởi những lực lượng siêu tự nhiên và sẵn sàng làm bất cứ điều gì để loại bỏ mọi hiểm nguy cho bản thân. Behmen là một chàng trai quả cảm với niềm tin hoàn toàn vỡ nát sau nhiều năm chinh chiến với tư cách là một hiệp sĩ Thập tự chinh. Anh trở lại quê hương của mình nằm trong lòng trung tâm Châu Âu để rồi đau đớn nận ra nó đang bị ảnh hưởng bởi cơn dịch bệnh Đen chết người.

    Trong khi tìm kiếm thức ăn và những nhu yếu phẩm cần thiết khác tại lâu đài ở Marburg, Behmen và người bạn thân của mình, Felson, đã bị bắt và được người giáo chủ sắp lìa trần yêu cầu đưa một cô gái quê trẻ, được cho là kẻ gây ra dịch bệnh này, đến một tu viện hẻo lánh nhằm hóa giải sức mạnh nguyền rủa đen tối của cô. Behmen đồng ý làm nhiệm vụ này nhưng chỉ khi cô gái được phán xử một cách công bằng.

    Sau khi anh cùng năm người cộng sự bắt đầu chuyến hành trình đầy nguy hiểm này, họ dần nhận ra rằng cô gái xinh xắn này không phải là một người bình thường với nỗi sợ đến tận gan tủy. Nhiệm vụ này có thể sẽ buộc họ phải đương đầu với một thế lực ma quái mà họ không bao giờ tương tượng được, dù là trong thời khắc đen tối nhất.

    Code:
    Format : Matroska
    File size : 4.36 GiB
    Duration : 1h 34mn
    Overall bit rate : 6 596 Kbps
    Encoded date : UTC 2011-03-15 18:47:39
    Writing application : mkvmerge v4.6.0 ('Still Crazy After All These Years') built on Mar 10 2011 00:50:27
    Writing library : libebml v1.2.0 + libmatroska v1.1.0

    Video
    ID : 1
    Format : AVC
    Format/Info : Advanced Video Codec
    Format profile : High@L4.1
    Format settings, CABAC : Yes
    Format settings, ReFrames : 8 frames
    Muxing mode : Header stripping
    Codec ID : V_MPEG4/ISO/AVC
    Duration : 1h 34mn
    Bit rate : 5 091 Kbps
    Width : 1 280 pixels
    Height : 720 pixels
    Display aspect ratio : 16:9
    Frame rate : 23.976 fps
    Color space : YUV
    Chroma subsampling : 4:2:0
    Bit depth : 8 bits
    Scan type : Progressive
    Bits/(Pixel*Frame) : 0.230
    Stream size : 3.28 GiB (75%)
    Writing library : x264 core 114 r1913 5fd3dce
    Encoding settings : cabac=1 / ref=8 / deblock=1:-1:-1 / analyse=0x3:0x133 / me=umh / subme=7 / psy=1 / psy_rd=1.00:0.10 / mixed_ref=1 / me_range=16 / chroma_me=1 / trellis=2 / 8x8dct=1 / cqm=0 / deadzone=21,11 / fast_pskip=0 / chroma_qp_offset=-3 / threads=12 / sliced_threads=0 / nr=0 / decimate=1 / interlaced=0 / constrained_intra=0 / bframes=3 / b_pyramid=2 / b_adapt=2 / b_bias=0 / direct=3 / weightb=1 / open_gop=0 / weightp=2 / keyint=250 / keyint_min=23 / scenecut=40 / intra_refresh=0 / rc_lookahead=50 / rc=2pass / mbtree=1 / bitrate=5091 / ratetol=1.0 / qcomp=0.60 / qpmin=0 / qpmax=69 / qpstep=4 / cplxblur=20.0 / qblur=0.5 / ip_ratio=1.40 / aq=1:1.00
    Language : Russian

    Audio
    ID : 2
    Format : DTS
    Format/Info : Digital Theater Systems
    Muxing mode : Header stripping
    Codec ID : A_DTS
    Duration : 1h 34mn
    Bit rate mode : Constant
    Bit rate : 1 510 Kbps
    Channel(s) : 6 channels
    Channel positions : Front: L C R, Side: L R, LFE
    Sampling rate : 48.0 KHz
    Bit depth : 24 bits
    Compression mode : Lossy
    Stream size : 1 023 MiB (23%)
    Title : English @ DTS 5.1 @ 1510 kbps
    Language : English

    Text
    ID : 3
    Format : UTF-8
    Codec ID : S_TEXT/UTF8
    Codec ID/Info : UTF-8 Plain Text
    Title : Russisn
    Language : Russian

    [​IMG]





    [​IMG]

    Code:
    http://www.mediafire.com/?mmymkyu7ay9zp

    Chúc các bạn vui vẻ:D
     
    Đang tải...

Chia sẻ trang này