Hàn Quốc [Mega1280] [Hài hước] Villain And Widow 2010 720p HDTV x264 AC3-OHE

Thảo luận trong 'HD Zone' bắt đầu bởi relex_thu7, 17/1/15.

  1. relex_thu7

    relex_thu7 New Member


    Villain And Widow 2010 720p HDTV x264 AC3-OHE
    [​IMG]

    [​IMG]
    Code:
    General
    Unique ID : 226288365926364711019941667384828269490 (0xAA3D8DD2F8720996AD1BF5EF680E93B2)
    Complete name : E:\Villain.And.Widow.2010.720p.HDTV.x264.AC3-OHE\Villain.And.Widow.2010.720p.HDTV.x264.AC3-OHE.mkv
    Format : Matroska
    File size : 2.69 GiB
    Duration : 1h 55mn
    Overall bit rate : 3 341 Kbps
    Encoded date : UTC 2011-01-20 08:02:45
    Writing application : mkvmerge v4.4.0 ('Die Wiederkehr') built on Oct 31 2010 21:52:48
    Writing library : libebml v1.0.0 + libmatroska v1.0.0

    Video
    ID : 1
    Format : AVC
    Format/Info : Advanced Video Codec
    Format profile : High@L3.1
    Format settings, CABAC : Yes
    Format settings, ReFrames : 5 frames
    Codec ID : V_MPEG4/ISO/AVC
    Duration : 1h 55mn
    Bit rate : 3 000 Kbps
    Width : 1 280 pixels
    Height : 544 pixels
    Display aspect ratio : 2.35:1
    Frame rate : 23.976 fps
    Color space : YUV
    Chroma subsampling : 4:2:0
    Bit depth : 8 bits
    Scan type : Progressive
    Bits/(Pixel*Frame) : 0.180
    Stream size : 2.33 GiB (87%)
    Writing library : x264 core 112 r1867 22bfd31
    Encoding settings : cabac=1 / ref=5 / deblock=1:0:0 / analyse=0x3:0x113 / me=umh / subme=8 / psy=1 / psy_rd=1.00:0.00 / mixed_ref=1 / me_range=16 / chroma_me=1 / trellis=1 / 8x8dct=1 / cqm=0 / deadzone=21,11 / fast_pskip=1 / chroma_qp_offset=-2 / threads=6 / sliced_threads=0 / nr=0 / decimate=1 / interlaced=0 / constrained_intra=0 / bframes=3 / b_pyramid=2 / b_adapt=2 / b_bias=0 / direct=3 / weightb=1 / open_gop=0 / weightp=2 / keyint=250 / keyint_min=23 / scenecut=40 / intra_refresh=0 / rc_lookahead=50 / rc=abr / mbtree=1 / bitrate=3000 / ratetol=1.0 / qcomp=0.60 / qpmin=0 / qpmax=51 / qpstep=4 / ip_ratio=1.40 / aq=1:1.00
    Language : English

    Audio
    ID : 2
    Format : AC-3
    Format/Info : Audio Coding 3
    Mode extension : CM (complete main)
    Codec ID : A_AC3
    Duration : 1h 55mn
    Bit rate mode : Constant
    Bit rate : 384 Kbps
    Channel(s) : 2 channels
    Channel positions : Front: L R
    Sampling rate : 48.0 KHz
    Bit depth : 16 bits
    Compression mode : Lossy
    Delay relative to video : 250ms
    Stream size : 317 MiB (11%)
    Language : Korean
    [​IMG]


    [​IMG]

    [​IMG]

    [​IMG]

    [​IMG]

    14 part x 200 Mb + 1 part 103.6 Mb Recovery 5%
    Code:
    http://mega.1280.com/folder/WOTGFL9YIF
     
    Đang tải...

Chia sẻ trang này